Распродажа!

[Наиль Алишев] Git: Полный курс для начинающих и не только (2019)

490,00 49,00

Добавить в список желаний
Добавить в список желаний
Want a discount? Become a member!
Артикул: 5c616bbac272 Категория: Метки: ,

Описание

Автор: Наиль Алишев
Название: Git: Полный курс для начинающих и не только (2019)

Описание:
Этот курс подойдет для тех людей, кто не знает про GIT ничего и хотел бы изучить его «с нуля». Однако, курс также будет полезен тем людям, кто ежедневно использует GIT в своей работе, но хотел бы обрести большую уверенность в управлении этим инструментом. Зачастую разработчики, которые ежедневно используют GIT, не имеют глубокого понимания работы этой системы контроля версий. Поэтому в этом курсе все аспекты устройства GIT разбираются максимально доскональным и подробным образом.

Продолжительность: 04:47:42
Качество видео: PCRec
Видео: AVC/H.264, 1280×800, ~394-1631 Kbps
Аудио: AAC, 2 ch, 127-128 Kbps

Спойлер: Mediainfo:

Общее
Полное имя : .2. Основы GIT6. Команда git clean.mp4
Формат : MPEG-4
Профиль формата : Base Media
Идентификатор кодека : isom (isom/iso2/avc1/mp41)
Размер файла : 21,0 Мбайт
Продолжительность : 3 м. 41 с.
Общий поток : 797 Кбит/сек
Программа кодирования : Lavf58.12.100
IsTruncated : Yes
Видео
Идентификатор : 1
Формат : AVC
Формат/Информация : Advanced Video Codec
Профиль формата : Main@L3.1
Настройки формата : CABAC / 4 Ref Frames
Параметр CABAC формата : Да
Параметр RefFrames формата : 4 кадра
Параметр GOP формата : M=4, N=60
Идентификатор кодека : avc1
Идентификатор кодека/Информация : Advanced Video Coding
Продолжительность : 3 м. 41 с.
Битрейт : 660 Кбит/сек
Номинальный битрейт : 3000 Кбит/сек
Ширина : 1280 пикселей
Высота : 800 пикселей
Соотношение сторон : 16:10
Режим частоты кадров : Постоянный
Частота кадров : 30,000 кадров/сек
Цветовое пространство : YUV
Субдискретизация насыщенности : 4:2:0
Битовая глубина : 8 бит
Тип развёртки : Прогрессивная
Бит/(Пиксели*Кадры) : 0.024
Размер потока : 17,4 Мбайт (83%)
Библиотека кодирования : x264 core 148
Настройки программы : cabac=1 / ref=3 / deblock=1:-1:-1 / analyse=0x1:0x111 / me=umh / subme=6 / psy=1 / psy_rd=1.00:0.15 / mixed_ref=1 / me_range=16 / chroma_me=1 / trellis=1 / 8x8dct=0 / cqm=0 / deadzone=21,11 / fast_pskip=1 / chroma_qp_offset=-3 / threads=22 / lookahead_threads=3 / sliced_threads=0 / nr=0 / decimate=1 / interlaced=0 / bluray_compat=0 / constrained_intra=0 / bframes=3 / b_pyramid=2 / b_adapt=1 / b_bias=0 / direct=1 / weightb=1 / open_gop=0 / weightp=2 / keyint=60 / keyint_min=6 / scenecut=0 / intra_refresh=0 / rc_lookahead=60 / rc=cbr / mbtree=1 / bitrate=3000 / ratetol=1.0 / qcomp=0.60 / qpmin=0 / qpmax=69 / qpstep=4 / vbv_maxrate=3000 / vbv_bufsize=6000 / nal_hrd=none / filler=0 / ip_ratio=1.40 / aq=1:1.00
Codec configuration box : avcC
Аудио
Идентификатор : 2
Формат : AAC LC
Формат/Информация : Advanced Audio Codec Low Complexity
Идентификатор кодека : mp4a-40-2
Продолжительность : 3 м. 41 с.
Duration_LastFrame : -17 мс.
Вид битрейта : Постоянный
Битрейт : 128 Кбит/сек
Каналы : 2 канала
ChannelLayout : L R
Частота : 44,1 КГц
Частота кадров : 43,066 кадра/сек (1024 SPF)
Метод сжатия : С потерями
Размер потока : 3,38 Мбайт (16%)
Default : Да
AlternateGroup/String : 1

Отзывы

Отзывов пока нет.

Будьте первым, кто оставил отзыв на “[Наиль Алишев] Git: Полный курс для начинающих и не только (2019)”